Ocena wątku:
  • 0 głosów - średnia: 0
  • 1
  • 2
  • 3
  • 4
  • 5
Problem z kamerą na Skype, brak obrazu.
#31
0
Pozostało jeszcze:
załadować moduł sudo modprobe v4l2loopback
Uruchomić odtwarzanie: ffmpeg -i /dev/video0 -vcodec rawvideo -pix_fmt yuv420p -threads 0 -f v4l2 /dev/video1
I uruchomić skypeforlinux i sprawdzić czy do wyboru są już dwie kamerki.
Odpowiedz
#32
0
już sie ładuje

Dodano po pewnym czasie:
caly czas sie ładuje Smile tak ma być ? ---> (fragment)

 
Kod:
rame= 8637 fps= 11 q=-0.0 size=N/A time=00:13:36.09 bitrate=N/A dup=0 drop=33 sPast duration 0.998314 too large
Past duration 0.982277 too large
Past duration 0.966286 too large
frame= 8643 fps= 11 q=-0.0 size=N/A time=00:13:36.66 bitrate=N/A dup=0 drop=33 sframe= 8648 fps= 11 q=-0.0 size=N/A time=00:13:37.13 bitrate=N/A dup=0 drop=33 sframe= 8653 fps= 11 q=-0.0 size=N/A time=00:13:37.60 bitrate=N/A dup=0 drop=33 sframe= 8659 fps= 11 q=-0.0 size=N/A time=00:13:38.17 bitrate=N/A dup=0 drop=33 sframe= 8664 fps= 11 q=-0.0 size=N/A time=00:13:38.64 bitrate=N/A dup=0 drop=33 sframe= 8670 fps= 11 q=-0.0 size=N/A time=00:13:39.21 bitrate=N/A dup=0 drop=33 sframe= 8675 fps= 11 q=-0.0 size=N/A time=00:13:39.68 bitrate=N/A dup=0 drop=33 sframe= 8680 fps= 11 q=-0.0 size=N/A time=00:13:40.15 bitrate=N/A dup=0 drop=33 sframe= 8686 fps= 11 q=-0.0 size=N/A time=00:13:40.72 bitrate=N/A dup=0 drop=33 sframe= 8691 fps= 11 q=-0.0 size=N/A time=00:13:41.19 bitrate=N/A dup=0 drop=33 sframe= 8697 fps= 11 q=-0.0 size=N/A time=00:
Odpowiedz
#33
0
Sam nie wiem bo nigdy tego nie używałem.
Może przenieśmy to w tło, abyś mógł wykonać kolejną komendę.
Najpierw zakończ obecny proces ctrl+c lub po prostu zamknij terminal i uruchom nową komendę:
ffmpeg -i /dev/video0 -vcodec rawvideo -pix_fmt yuv420p -threads 0 -f v4l2 /dev/video1 &
i wtedy powinno się dać uruchomić kolejną komendę skypeforlinux
Odpowiedz
#34
0
włączyłem Skype i kamera (diody) zaświeciła sie. Są do wyboru 2 opcje

Dodano po pewnym czasie:
Kod:
[email protected] ~ $ ffmpeg -i /dev/video0 -vcodec rawvideo -pix_fmt yuv420p -threads 0 -f v4l2 /dev/video1 &
[1] 10354
[email protected] ~ $ ffmpeg version 3.4 Copyright (c) 2000-2017 the FFmpeg developers
  built with gcc 4.8 (Ubuntu 4.8.4-2ubuntu1~14.04.4)
  configuration: --extra-libs=-ldl --prefix=/opt/ffmpeg --mandir=/usr/share/man --enable-avresample --disable-debug --enable-nonfree --enable-gpl --enable-version3 --enable-libopencore-amrnb --enable-libopencore-amrwb --disable-decoder=amrnb --disable-decoder=amrwb --enable-libpulse --enable-libfreetype --enable-gnutls --disable-ffserver --enable-libx264 --enable-libx265 --enable-libfdk-aac --enable-libvorbis --enable-libtheora --enable-libmp3lame --enable-libopus --enable-libvpx --enable-libspeex --enable-libass --enable-avisynth --enable-libsoxr --enable-libxvid --enable-libvidstab --enable-libwavpack --enable-nvenc --enable-libzimg
  libavutil      55. 78.100 / 55. 78.100
  libavcodec     57.107.100 / 57.107.100
  libavformat    57. 83.100 / 57. 83.100
  libavdevice    57. 10.100 / 57. 10.100
  libavfilter     6.107.100 /  6.107.100
  libavresample   3.  7.  0 /  3.  7.  0
  libswscale      4.  8.100 /  4.  8.100
  libswresample   2.  9.100 /  2.  9.100
  libpostproc    54.  7.100 / 54.  7.100
skypeforlinux

[1]+  Stopped                 ffmpeg -i /dev/video0 -vcodec rawvideo -pix_fmt yuv420p -threads 0 -f v4l2 /dev/video1
[email protected] ~ $

Dodano po pewnym czasie:
Teraz jest tak jak było, brak wyboru kamery.  Diody w kamerze nie zapalają się.  Wtedy coś załapało ale obrazu nie było.

Dodano po pewnym czasie:
Wtedy chyba było blisko, bo był wybór i diody w kamerze zapaliły się Smile


Załączone pliki Miniatury
   
Odpowiedz
#35
0
To zrób tak otwórz sobie dwa okna terminala. W jednym uruchom komendę: ffmpeg -i /dev/video0 -vcodec rawvideo -pix_fmt yuv420p -threads 0 -f v4l2 /dev/video1 a w drugim skypeforlinux (wcześniej zamknij skype)
Odpowiedz
#36
0
Kamera załapała (diody świecą sie) wybierałem dwie opcje w wyborze kamery, obrazu brak  Shy
Odpowiedz
#37
0
W obu przypadkach czarny ekran?
Odpowiedz
#38
0
Tak w obu, zmieniałem podczas tej "akcji"

Dodano po pewnym czasie:
Dummy video device (0x0000)  i USB Camera
Odpowiedz
#39
0
Zrób inny test.
W jednym oknie terminala uruchom ffmpeg -f x11grab -s 640x480 -i :0.0+10,20 -vf format=pix_fmts=yuv420p -f v4l2 /dev/video1
W drugim odpal skype.
W skypie na drugiej kamerce (Dummy video device) powinieneś widzieć podgląd na pulpit.
Odpowiedz
#40
0
Jest wybór ale w kamerze nie zaświeciły się diody (nie właczyła się)  Pulpitu nie widzę, czarne tło
Odpowiedz


Skocz do:




Użytkownicy przeglądający ten wątek: 2 gości